How to merge MP4's into one file with chapters?

Free video converter, convert from any format to any format, mkv to avi, m2ts to avi, mp4, h264, mts, wmv, mov, DVD, etc.

Moderators: Maggie, ckhouston, JJ, Phil, Forum admin

Post Reply
877
Posts: 4
Joined: Fri Nov 18, 2016 6:08 pm

How to merge MP4's into one file with chapters?

Post by 877 »

As per title, I would like to merge aprox ten MP4's into one file with chapters. It's footage from my gopro.

File info is:
Complete name : D:\temp GoPro working\Oct-12.mp4
Format : MPEG-4
Format profile : Base Media / Version 2
Codec ID : mp42 (mp41/isom)
File size : 255 MiB
Duration : 1 min 23 s
Overall bit rate : 25.7 Mb/s
Encoded date : UTC 2017-02-05 13:58:49
Tagged date : UTC 2017-02-05 13:58:49

Video
ID : 1
Format : AVC
Format/Info : Advanced Video Codec
Format profile : Baseline@L4.2
Format settings, CABAC : No
Format settings, ReFrames : 2 frames
Format settings, GOP : M=1, N=50
Codec ID : avc1
Codec ID/Info : Advanced Video Coding
Duration : 1 min 23 s
Bit rate : 25.6 Mb/s
Width : 1 920 pixels
Height : 1 080 pixels
Display aspect ratio : 16:9
Frame rate mode : Constant
Frame rate : 50.000 FPS
Color space : YUV
Chroma subsampling : 4:2:0
Bit depth : 8 bits
Scan type : Progressive
Bits/(Pixel*Frame) : 0.246
Stream size : 253 MiB (100%)
Encoded date : UTC 2017-02-05 13:58:49
Tagged date : UTC 2017-02-05 13:58:49

Audio
ID : 2
Format : AAC
Format/Info : Advanced Audio Codec
Format profile : LC
Codec ID : 40
Duration : 1 min 23 s
Bit rate mode : Constant
Bit rate : 128 kb/s
Channel(s) : 2 channels
Channel positions : Front: L R
Sampling rate : 48.0 kHz
Frame rate : 46.875 FPS (1024 spf)
Compression mode : Lossy
Stream size : 1.22 MiB (0%)
Encoded date : UTC 2017-02-05 13:58:49
Tagged date : UTC 2017-02-05 13:58:49
mdhd_Duration : 83157

User avatar
Claire
VSO Team Member
Posts: 5913
Joined: Mon Apr 02, 2007 1:39 pm
Location: France
Contact:

Re: How to merge MP4's into one file with chapters?

Post by Claire »

Here are the two ways to merge files,
1)
Snap7921.jpg
2) load all files, select them all, then right click and select merge
Snap7922.jpg
Chapters can only be create when converting to some formats which include: MKV, DVD, Blu-Ray and AVCHD

See how to make chapters:
Snap7923.jpg

Post Reply