DVD and Blu-ray Converter beta versions 4.0.0.85

Help with Bluray Converter and Convert DVD to mp4 and other formats. strip Bluray, convert to Blu-ray or avchd, convert blu ray to mkv, avi, copy DVDs and much more.

Moderators: cedric, Forum admin

DVD and Blu-ray Converter beta versions 4.0.0.85

Postby Claire » Thu Apr 13, 2017 7:52 am

Latest official versions: 4.0.0.82
Latest beta version 4.0.0.85
Blu-ray Converter : http://download.vso-software.fr/archive ... 0.0.85.exe
DVD Converter : http://download.vso-software.fr/archive ... 0.0.85.exe

***Please post any problems you find here, and if you have no problems you can post that too! Thanks!

Blu-ray & DVD Converters - 4.0.0.85 - Released 2018-01-16
=========================================================
- 0013449: [Bug] Progress fomr not always appears on collaing form's center (felicia)
- 0013443: [Bug] Burning an already converted project may produce bad disks (felicia)
- 0013438: [Bug] Delete folder after burn not working if ISO is selected (felicia)
- 0013433: [Bug] Overhaul file loading (May fix random load deadlock) (felicia)
- 0013425: [Bug] Remux disabled for audio in BD/DVD custom profiles (felicia)

Blu-ray & DVD Converters - 4.0.0.84 - Released 2017-12-05
=========================================================
- 0013413: [Crash] Random crash in edit window if seeking after video playback ends (felicia)
- 0013415: [Bug] Error wrongly reported when remux is deactivated (felicia)
- 0013411: [Bug] DTS encoding wrongly offered as option (felicia)

Blu-ray & DVD Converters - 4.0.0.83 - Released 2017-11-27
=========================================================
- 0013382: [Feature Request] Detail reasons to refuse remux (felicia)
- 0013399: [Bug] Wrong output size calculation when remuxing from DVD or BD (felicia)
- 0013396: [Bug] If source is DVD only beginning of video is read (felicia)
- 0013391: [Bug] Conversion files if last project name letter is a space for DVD output (felicia)
- 0013386: [Feature Request] Add support for F4V files (felicia)
- 0013377: [Bug] complex ass subtitles do no display in CXD preview or on output (felicia)
- 0013375: [Bug] Language selection reads & writes to other programs (felicia)
- 0013371: [Bug] Delete after burn option no longer works (felicia)
- 0013367: [Bug] conversion fails with subrip because of unhandled exception (felicia)
- 0013360: [Bug] Custom typesettings not remembered (felicia)

Blu-ray & DVD Converters - 4.0.0.82 - Released 2017-10-26
=========================================================
- 0013351: [Bug] Add missing DLLs for localisation tool (felicia)
- 0013337: [Bug] User bitrate is not always applied (felicia)
- 0013332: [Bug] BD subtitles rendered empty (felicia)
User avatar
Claire
VSO Team Member
 
Posts: 5914
Joined: Mon Apr 02, 2007 1:39 pm
Location: France

Re: DVD and Blu-ray Converter beta versions 4.0.0.63

Postby Echuir » Fri Apr 14, 2017 1:35 pm

Episode Extraction resolved in CloneBD product.
Echuir
 
Posts: 73
Joined: Thu Jan 03, 2008 1:45 pm
Location: USA - Alabama

Re: DVD and Blu-ray Converter beta versions 4.0.0.76

Postby dosibo51 » Mon Aug 07, 2017 5:01 pm

The installer of the latest .76 beta (and maybe latest official .70) - always shows the Japanese language on my Windows 10 Pro 64bit English (US), Location Austria ...

VSO 40076-Installer_JapaneseLanguage.png
VSO 40076-Installer_JapaneseLanguage.png (6.11 KiB) Viewed 1507 times
dosibo51
 
Posts: 97
Joined: Thu Jul 03, 2014 9:38 pm
Location: Austria

Re: DVD and Blu-ray Converter beta versions 4.0.0.76

Postby dosibo51 » Mon Aug 07, 2017 7:53 pm

I just tried to rip a BR (m2ts, h264) with .76 into .m2ts but audio remuxing of

VSO 40076 - truehd main audio 8 ch fails.png


fails.

The original BR plays perfectly via e.g. JRiver MC 23 (TrueHD Audio) but the audio remuxed .m2ts file has only big crackles every 6 - 8 seconds (also played back with VLC).

I can remember that I've reported the bug a longer time ago.

Finally I would have to convert TrueHD to DTS (which also doesn't work - see next comment).

Original file from BR:

Code: Select all
General
ID                                       : 0 (0x0)
Complete name                            : D:\BDMV\STREAM\00800.m2ts
Format                                   : BDAV
Format/Info                              : Blu-ray Video
File size                                : 28.0 GiB
Duration                                 : 1 h 46 min
Overall bit rate mode                    : Variable
Overall bit rate                         : 37.6 Mb/s
Maximum Overall bit rate                 : 48.0 Mb/s

Video
ID                                       : 4113 (0x1011)
Menu ID                                  : 1 (0x1)
Format                                   : AVC
Format/Info                              : Advanced Video Codec
Format profile                           : High@L4.1
Format settings, CABAC                   : Yes
Format settings, RefFrames               : 4 frames
Codec ID                                 : 27
Duration                                 : 1 h 46 min
Bit rate mode                            : Variable
Bit rate                                 : 34.8 Mb/s
Maximum bit rate                         : 28.0 Mb/s
Width                                    : 1 920 pixels
Height                                   : 1 080 pixels
Display aspect ratio                     : 16:9
Frame rate                               : 23.976 (24000/1001) FPS
Color space                              : YUV
Chroma subsampling                       : 4:2:0
Bit depth                                : 8 bits
Scan type                                : Progressive
Bits/(Pixel*Frame)                       : 0.700
Stream size                              : 26.0 GiB (93%)

Audio #1
ID                                       : 4352 (0x1100)
Menu ID                                  : 1 (0x1)
Format                                   : TrueHD / AC-3
Format settings, Endianness              : Big
Muxing mode                              : Stream extension
Codec ID                                 : 131
Duration                                 : 1 h 46 min
Bit rate mode                            : Variable / Constant
Bit rate                                 : 640 kb/s
Maximum bit rate                         : 6 108 kb/s
Channel(s)                               : 8 channels / 6 channels
Channel positions                        : Front: L C R, Side: L R, Back: L R, LFE / Front: L C R, Side: L R, LFE
Sampling rate                            : 48.0 kHz
Frame rate                               : 31.250 FPS (1536 SPF)
Bit depth                                : 16 bits
Stream size                              : 489 MiB (2%)
Service kind                             : Complete Main

Audio #2
ID                                       : 4353 (0x1101)
Menu ID                                  : 1 (0x1)
Format                                   : TrueHD / AC-3
Format profile                           : TrueHD+Atmos / TrueHD / AC-3
Format settings, Endianness              : Big
Muxing mode                              : Stream extension
Codec ID                                 : 131
Duration                                 : 1 h 46 min
Bit rate mode                            : Variable / Constant
Bit rate                                 : 640 kb/s
Maximum bit rate                         : 8 034 kb/s
Channel(s)                               : Object Based / 8 channels / 6 channels
Channel positions                        : Object Based / Front: L C R, Side: L R, Back: L R, LFE / Front: L C R, Side: L R, LFE
Sampling rate                            :  / 48.0 kHz / 48.0 kHz
Frame rate                               : 31.250 FPS (1536 SPF)
Bit depth                                : 16 bits
Stream size                              : 489 MiB (2%)
Service kind                             : Complete Main

Text #1
ID                                       : 4608 (0x1200)
Menu ID                                  : 1 (0x1)
Format                                   : PGS
Codec ID                                 : 144

Text #2
ID                                       : 4609 (0x1201)
Menu ID                                  : 1 (0x1)
Format                                   : PGS
Codec ID                                 : 144


m2ts remuxed file after rip:

Code: Select all
eneral
ID                                       : 0 (0x0)
Complete name                            : J:\y.m2ts
Format                                   : BDAV
Format/Info                              : Blu-ray Video
File size                                : 23.2 GiB
Duration                                 : 1 h 46 min
Overall bit rate mode                    : Variable
Overall bit rate                         : 31.1 Mb/s
Maximum Overall bit rate                 : 48.0 Mb/s

Video
ID                                       : 4113 (0x1011)
Menu ID                                  : 1 (0x1)
Format                                   : AVC
Format/Info                              : Advanced Video Codec
Format profile                           : High@L4.1
Format settings, CABAC                   : Yes
Format settings, RefFrames               : 4 frames
Codec ID                                 : 27
Duration                                 : 1 h 46 min
Bit rate mode                            : Variable
Maximum bit rate                         : 28.0 Mb/s
Width                                    : 1 920 pixels
Height                                   : 1 080 pixels
Display aspect ratio                     : 16:9
Frame rate                               : 23.976 (24000/1001) FPS
Color space                              : YUV
Chroma subsampling                       : 4:2:0
Bit depth                                : 8 bits
Scan type                                : Progressive

Audio #1
ID                                       : 4352 (0x1100)
Menu ID                                  : 1 (0x1)
Format                                   : TrueHD
Format profile                           : TrueHD+Atmos / TrueHD
Codec ID                                 : 131
Duration                                 : 1 h 46 min
Bit rate mode                            : Variable
Maximum bit rate                         : 8 034 kb/s
Channel(s)                               : Object Based / 8 channels
Channel positions                        : Object Based / Front: L C R, Side: L R, Back: L R, LFE
Sampling rate                            :  / 48.0 kHz
Frame rate                               : 1 200.000 FPS (40 SPF)
Compression mode                         : Lossless
Language                                 : German

Audio #2
ID                                       : 4352 (0x1100)
Menu ID                                  : 1 (0x1)
Format                                   : TrueHD
Format profile                           : TrueHD+Atmos / TrueHD
Codec ID                                 : 131
Duration                                 : 1 h 46 min
Bit rate mode                            : Variable
Maximum bit rate                         : 8 034 kb/s
Channel(s)                               : Object Based / 8 channels
Channel positions                        : Object Based / Front: L C R, Side: L R, Back: L R, LFE
Sampling rate                            :  / 48.0 kHz
Frame rate                               : 1 200.000 FPS (40 SPF)
Compression mode                         : Lossless
Delay relative to video                  : 3 s 353 ms
Language                                 : German

Text
ID                                       : 4608 (0x1200)
Menu ID                                  : 1 (0x1)
Format                                   : PGS
Codec ID                                 : 144
Language                                 : German
dosibo51
 
Posts: 97
Joined: Thu Jul 03, 2014 9:38 pm
Location: Austria

Re: DVD and Blu-ray Converter beta versions 4.0.0.76

Postby dosibo51 » Wed Aug 09, 2017 10:53 am

As reported above with build .76:

Because remuxing & playback of TrueHD doesn't work, I converted the audio to DTS:

VSO-TrueHD2DTSConvert.png


but the final result is only that the voice is on the right channel:

VSO-DTS-Right Channel.png


Here the .m2ts file with DTS:

Code: Select all
General
ID                                       : 0 (0x0)
Complete name                            : J:\y.m2ts
Format                                   : BDAV
Format/Info                              : Blu-ray Video
File size                                : 19.4 GiB
Duration                                 : 1 h 46 min
Overall bit rate mode                    : Variable
Overall bit rate                         : 26.1 Mb/s
Maximum Overall bit rate                 : 48.0 Mb/s

Video
ID                                       : 4113 (0x1011)
Menu ID                                  : 1 (0x1)
Format                                   : AVC
Format/Info                              : Advanced Video Codec
Format profile                           : High@L4.1
Format settings, CABAC                   : Yes
Format settings, RefFrames               : 4 frames
Codec ID                                 : 27
Duration                                 : 1 h 46 min
Bit rate mode                            : Variable
Bit rate                                 : 24.0 Mb/s
Maximum bit rate                         : 28.0 Mb/s
Width                                    : 1 920 pixels
Height                                   : 1 080 pixels
Display aspect ratio                     : 16:9
Frame rate                               : 23.976 (24000/1001) FPS
Color space                              : YUV
Chroma subsampling                       : 4:2:0
Bit depth                                : 8 bits
Scan type                                : Progressive
Bits/(Pixel*Frame)                       : 0.483
Stream size                              : 17.9 GiB (92%)

Audio
ID                                       : 4352 (0x1100)
Menu ID                                  : 1 (0x1)
Format                                   : DTS
Format/Info                              : Digital Theater Systems
Mode                                     : 16
Format settings, Endianness              : Big
Codec ID                                 : 130
Duration                                 : 1 h 46 min
Bit rate mode                            : Constant
Bit rate                                 : 1 026 kb/s
Channel(s)                               : 6 channels
Channel positions                        : Front: L C R, Side: L R, LFE
Sampling rate                            : 48.0 kHz
Frame rate                               : 93.750 FPS (512 SPF)
Bit depth                                : 16 bits
Compression mode                         : Lossy
Stream size                              : 784 MiB (4%)
Language                                 : German

Text
ID                                       : 4608 (0x1200)
Menu ID                                  : 1 (0x1)
Format                                   : PGS
Codec ID                                 : 144
Language                                 : German


Converting from TrueHD to AC3 works correctly:

VSO-TrueHD2AC3Convert.png
VSO-TrueHD2AC3Convert.png (8.69 KiB) Viewed 1487 times


Here the .m2ts file with AC3:

Code: Select all
General
ID                                       : 0 (0x0)
Complete name                            : J:\bla.m2ts
Format                                   : BDAV
Format/Info                              : Blu-ray Video
File size                                : 18.9 GiB
Duration                                 : 1 h 46 min
Overall bit rate mode                    : Variable
Overall bit rate                         : 25.4 Mb/s
Maximum Overall bit rate                 : 48.0 Mb/s

Video
ID                                       : 4113 (0x1011)
Menu ID                                  : 1 (0x1)
Format                                   : AVC
Format/Info                              : Advanced Video Codec
Format profile                           : High@L4.1
Format settings, CABAC                   : Yes
Format settings, RefFrames               : 4 frames
Codec ID                                 : 27
Duration                                 : 1 h 46 min
Bit rate mode                            : Variable
Bit rate                                 : 24.0 Mb/s
Maximum bit rate                         : 28.0 Mb/s
Width                                    : 1 920 pixels
Height                                   : 1 080 pixels
Display aspect ratio                     : 16:9
Frame rate                               : 23.976 (24000/1001) FPS
Color space                              : YUV
Chroma subsampling                       : 4:2:0
Bit depth                                : 8 bits
Scan type                                : Progressive
Bits/(Pixel*Frame)                       : 0.482
Stream size                              : 17.9 GiB (94%)

Audio
ID                                       : 4352 (0x1100)
Menu ID                                  : 1 (0x1)
Format                                   : AC-3
Format/Info                              : Audio Coding 3
Format settings, Endianness              : Big
Codec ID                                 : 129
Duration                                 : 1 h 46 min
Bit rate mode                            : Constant
Bit rate                                 : 384 kb/s
Channel(s)                               : 6 channels
Channel positions                        : Front: L C R, Side: L R, LFE
Sampling rate                            : 48.0 kHz
Frame rate                               : 31.250 FPS (1536 SPF)
Bit depth                                : 16 bits
Compression mode                         : Lossy
Stream size                              : 293 MiB (2%)
Language                                 : German
Service kind                             : Complete Main

Text
ID                                       : 4608 (0x1200)
Menu ID                                  : 1 (0x1)
Format                                   : PGS
Codec ID                                 : 144
Language                                 : German


Please fix.
dosibo51
 
Posts: 97
Joined: Thu Jul 03, 2014 9:38 pm
Location: Austria

Re: DVD and Blu-ray Converter beta versions 4.0.0.76

Postby dosibo51 » Fri Aug 11, 2017 5:30 pm

Another bug today:

timecode_fontstrip_altresource.txt: File extension not matching
timecode_fontstrip_altshift.txt: File extension not matching

VSO_FilesSkipped.png
dosibo51
 
Posts: 97
Joined: Thu Jul 03, 2014 9:38 pm
Location: Austria

Re: DVD and Blu-ray Converter beta versions 4.0.0.76

Postby dosibo51 » Fri Aug 11, 2017 5:34 pm

EAC3 remux not possible - ok - never heard about that. Feature request. ;)

EAC3.png
dosibo51
 
Posts: 97
Joined: Thu Jul 03, 2014 9:38 pm
Location: Austria

Re: DVD and Blu-ray Converter beta versions 4.0.0.77

Postby felicia » Thu Sep 07, 2017 10:58 am

New beta posted
felicia
VSO Team Member
 
Posts: 599
Joined: Thu Jul 23, 2009 9:50 am

Re: DVD and Blu-ray Converter beta versions 4.0.0.77

Postby Echuir » Fri Sep 15, 2017 2:35 pm

After a complete convert the file will play but I don't get a running time and I can't FF or REV, nor can I jump to a point in the video. BLURAY only so far.
Echuir
 
Posts: 73
Joined: Thu Jan 03, 2008 1:45 pm
Location: USA - Alabama

Re: DVD and Blu-ray Converter beta versions 4.0.0.77

Postby felicia » Fri Sep 15, 2017 2:52 pm

Echuir wrote:After a complete convert the file will play but I don't get a running time and I can't FF or REV, nor can I jump to a point in the video. BLURAY only so far.


Can you tell me what output was selected.
felicia
VSO Team Member
 
Posts: 599
Joined: Thu Jul 23, 2009 9:50 am

Re: DVD and Blu-ray Converter beta versions 4.0.0.77

Postby felicia » Mon Sep 18, 2017 12:47 pm

new beta posted
felicia
VSO Team Member
 
Posts: 599
Joined: Thu Jul 23, 2009 9:50 am

Re: DVD and Blu-ray Converter beta versions 4.0.0.79

Postby felicia » Fri Sep 22, 2017 8:31 am

new beta posted.
Fixes burning ssues
felicia
VSO Team Member
 
Posts: 599
Joined: Thu Jul 23, 2009 9:50 am

Re: DVD and Blu-ray Converter beta versions 4.0.0.76

Postby dosibo51 » Fri Sep 29, 2017 5:55 am

dosibo51 wrote:The installer of the latest .76 beta (and maybe latest official .70) - always shows the Japanese language on my Windows 10 Pro 64bit English (US), Location Austria ...

VSO 40076-Installer_JapaneseLanguage.png


This still happens with .79 beta. I also never got replies to my previous postings above.
dosibo51
 
Posts: 97
Joined: Thu Jul 03, 2014 9:38 pm
Location: Austria

Re: DVD and Blu-ray Converter beta versions 4.0.0.79

Postby felicia » Fri Sep 29, 2017 9:19 am

@dosibo51:
- Installer language is provided by system, I will change the way we ask it.
- *.txt extensions are not supported, as we can hardly know what's inside.
- In BDMV standard, EAC3 is only allowed in back channels, so remux is disabled for this kind of stream
felicia
VSO Team Member
 
Posts: 599
Joined: Thu Jul 23, 2009 9:50 am

Re: DVD and Blu-ray Converter beta versions 4.0.0.79

Postby dosibo51 » Fri Sep 29, 2017 9:45 am

felicia wrote:@dosibo51:
- Installer language is provided by system, I will change the way we ask it.
- *.txt extensions are not supported, as we can hardly know what's inside.
- In BDMV standard, EAC3 is only allowed in back channels, so remux is disabled for this kind of stream


Hi felicia,

thanks a lot.

Regarding the installer: I never set up Japanese anywhere. ;) I think something has changed in your installer because in previous versions I never had a problem.

Windows 10 Pro 64 bit English (US):
Country or region: Austria
Timezone: UTC+01:00 .. Amsterdam, Berlin, Vienna

Have a nice weekend,
Robert
dosibo51
 
Posts: 97
Joined: Thu Jul 03, 2014 9:38 pm
Location: Austria

Re: DVD and Blu-ray Converter beta versions 4.0.0.79

Postby dosibo51 » Fri Sep 29, 2017 10:03 am

felicia wrote:@dosibo51:
- In BDMV standard, EAC3 is only allowed in back channels, so remux is disabled for this kind of stream


Felicia,

just now - I rip a new film from blu-ray:

https://www.amazon.de/Findet-Dorie-Blu- ... ndet+Dorie
(sorry it's the German link - I don't know the french title but when you see the cover you know the french film title)

and BR Converter shows me again EAC3 (see enclosed screen shot).

EAC3_2017-09-29_11-50-56.jpg


Does this mean the company uses EAC3 in BDMV standard on all channels? (It's now the 2nd new film with EAC3).

Is it possible to remux this when you enable it? Finally said I want to have a 1:1 copy of BR (as .m2ts).

In the meantime I will convert to AC3 again. Also TrueHD I have to convert because remux does not work.

Best regards.
dosibo51
 
Posts: 97
Joined: Thu Jul 03, 2014 9:38 pm
Location: Austria

Re: DVD and Blu-ray Converter beta versions 4.0.0.79

Postby felicia » Fri Sep 29, 2017 12:43 pm

@dosibo51:

What I see is very weird as in the 100+ test BDs we have EAC3 streams are never alone and are only used as commentary streams for attached secondary video streams (PiP).
If you play the movie in the preview do you hear the movie all the time or is it mixed with commentary?

BR,

Felicià
felicia
VSO Team Member
 
Posts: 599
Joined: Thu Jul 23, 2009 9:50 am

Re: DVD and Blu-ray Converter beta versions 4.0.0.81

Postby felicia » Tue Oct 10, 2017 7:52 am

New beta posted
felicia
VSO Team Member
 
Posts: 599
Joined: Thu Jul 23, 2009 9:50 am

Re: DVD and Blu-ray Converter beta versions 4.0.0.82

Postby felicia » Thu Oct 26, 2017 1:44 pm

New beta posted
felicia
VSO Team Member
 
Posts: 599
Joined: Thu Jul 23, 2009 9:50 am

Re: DVD and Blu-ray Converter beta versions 4.0.0.82

Postby dosibo51 » Wed Nov 08, 2017 8:40 am

Hi,

I just tried again with BRC 4.0.0.82 to remux TrueHD audio (into .m2ts file) but it doesn't work.

For the test I selected from min 12 - 24, clicked "Start" and it was finished after 1 second ;) .. 16 MB were written to file.
When I start to rip the complete film (no advanced settings) it runs 33 mins, a complete film is there - but the audio is completely destroyed (permanent audio drop outs).

When I select to convert (TrueHD) to AC3 - ripping works and test file has 2,18 GB and all plays fine.

Audio preview works perfectly.

See enclosed screen shots.
Attachments
KingArthur_TrueHD-2-2017-11-08_09-08-05.jpg
KingArthur_TrueHD-2017-11-08_09-08-05.jpg
dosibo51
 
Posts: 97
Joined: Thu Jul 03, 2014 9:38 pm
Location: Austria

Next

Return to Blu-ray Converter and DVD Converter

 


  • Related topics
    Replies
    Views
    Last post

Who is online

Users browsing this forum: No registered users and 4 guests