[Solved] Different frame rates in output files in DVD converter

Help with Bluray Converter and Convert DVD to mp4 and other formats. strip Bluray, convert to Blu-ray or avchd, convert blu ray to mkv, avi, copy DVDs and much more.

Moderators: cedric, Forum admin

[Solved] Re: Different frame rates in output files in DVD converter

Postby Claire » Mon Sep 12, 2016 11:40 am

A similar problem has been fixed in our latest version 4.0.0.35
http://www.vso-software.fr/products/dvd ... verter.php
Please try with it if you haven't already.

If you still have a problem can you post your log file here
it can be found here
C:\ProgramData\VSO\DVD Converter Ultimate\4\Log
User avatar
Claire
VSO Team Member
 
Posts: 5914
Joined: Mon Apr 02, 2007 1:39 pm
Location: France

Re: Different frame rates in output files in DVD converter

Postby Claire » Thu Oct 13, 2016 8:50 am

This should be fixed now in our latest beta
User avatar
Claire
VSO Team Member
 
Posts: 5914
Joined: Mon Apr 02, 2007 1:39 pm
Location: France

Re: Different frame rates in output files in DVD converter

Postby dosibo51 » Fri Nov 11, 2016 6:07 pm

Hi,

I'm not sure if it is correct what I post here but finally I don't understand it - maybe someone can explain it:

I just remux a blu-ray with VC-1 codec and save it as MKV, remux video, audio, subtitle and finally the MKV file has this:

Code: Select all
Frame rate                               : 24.000 FPS
Original frame rate                      : 23.976 (24000/1001) FPS


So why does this happen? I didn't watch the film yet but is the film correct? I have to give it back on Monday so ...

I can not rip the VC-1 codec and save it as .m2ts because remux doesn't work and re-encoding with H264 takes very long (5 hours).

On the BR in BDMV / stream the biggest .m2ts file shows:

Code: Select all
ID                                       : 4113 (0x1011)
Menu ID                                  : 1 (0x1)
Format                                   : VC-1
Format profile                           : Advanced@L3
Codec ID                                 : 234
Duration                                 : 2 h 32 min
Bit rate                                 : 18.3 Mb/s
Width                                    : 1 920 pixels
Height                                   : 1 080 pixels
Display aspect ratio                     : 16:9
Frame rate                               : 23.976 (24000/1001) FPS
Color space                              : YUV
Chroma subsampling                       : 4:2:0
Bit depth                                : 8 bits
Scan type                                : Progressive
Compression mode                         : Lossy
Bits/(Pixel*Frame)                       : 0.369
Stream size                              : 19.5 GiB (63%)


and the final MKV file shows

Code: Select all
ID                                       : 1
Format                                   : VC-1
Format profile                           : Advanced@L3
Codec ID                                 : V_MS/VFW/FOURCC / WVC1
Codec ID/Hint                            : Microsoft
Duration                                 : 2 h 32 min
Bit rate                                 : 17.2 Mb/s
Width                                    : 1 920 pixels
Height                                   : 1 080 pixels
Display aspect ratio                     : 16:9
Frame rate mode                          : Constant
Frame rate                               : 24.000 FPS
Original frame rate                      : 23.976 (24000/1001) FPS
Color space                              : YUV
Chroma subsampling                       : 4:2:0
Bit depth                                : 8 bits
Scan type                                : Progressive
Compression mode                         : Lossy
Bits/(Pixel*Frame)                       : 0.347
Stream size                              : 18.4 GiB (93%)
Default                                  : Yes
Forced                                   : No
Track/Position                           : 0


I've used BR converter 4.0.0.47.

Thanks for helping.
dosibo51
 
Posts: 97
Joined: Thu Jul 03, 2014 9:38 pm
Location: Austria


Return to Blu-ray Converter and DVD Converter

 


  • Related topics
    Replies
    Views
    Last post

Who is online

Users browsing this forum: No registered users and 2 guests