5,5 hours instead of 30 min for 1:1 rip

Help with Bluray Converter and Convert DVD to mp4 and other formats. strip Bluray, convert to Blu-ray or avchd, convert blu ray to mkv, avi, copy DVDs and much more.

Moderators: cedric, Forum admin

5,5 hours instead of 30 min for 1:1 rip

Postby dosibo51 » Mon Nov 07, 2016 6:19 pm

Hi,

I'm just trying to rip this (older) blu-ray

Code: Select all
General
ID                                       : 0 (0x0)
Complete name                            : D:\BDMV\STREAM\00000.m2ts
Format                                   : BDAV
Format/Info                              : Blu-ray Video
File size                                : 31.0 GiB
Duration                                 : 2 h 32 min
Overall bit rate mode                    : Variable
Overall bit rate                         : 29.1 Mb/s
Maximum Overall bit rate                 : 48.0 Mb/s

Video
ID                                       : 4113 (0x1011)
Menu ID                                  : 1 (0x1)
Format                                   : VC-1
Format profile                           : Advanced@L3
Codec ID                                 : 234
Duration                                 : 2 h 32 min
Bit rate                                 : 18.3 Mb/s
Width                                    : 1 920 pixels
Height                                   : 1 080 pixels
Display aspect ratio                     : 16:9
Frame rate                               : 23.976 (24000/1001) FPS
Color space                              : YUV
Chroma subsampling                       : 4:2:0
Bit depth                                : 8 bits
Scan type                                : Progressive
Compression mode                         : Lossy
Bits/(Pixel*Frame)                       : 0.369
Stream size                              : 19.5 GiB (63%)

Audio #1
ID                                       : 4352 (0x1100)
Menu ID                                  : 1 (0x1)
Format                                   : AC-3
Format/Info                              : Audio Coding 3
Mode extension                           : CM (complete main)
Format settings, Endianness              : Big
Codec ID                                 : 129
Duration                                 : 2 h 32 min
Bit rate mode                            : Constant
Bit rate                                 : 448 kb/s
Channel(s)                               : 6 channels
Channel positions                        : Front: L C R, Side: L R, LFE
Sampling rate                            : 48.0 kHz
Frame rate                               : 31.250 FPS (1536 spf)
Bit depth                                : 16 bits
Compression mode                         : Lossy
Stream size                              : 488 MiB (2%)

Audio #2
ID                                       : 4353 (0x1101)
Menu ID                                  : 1 (0x1)
Format                                   : PCM
Format settings, Endianness              : Big
Format settings, Sign                    : Signed
Muxing mode                              : Blu-ray
Codec ID                                 : 128
Duration                                 : 2 h 32 min
Bit rate mode                            : Constant
Bit rate                                 : 4 608 kb/s
Channel(s)                               : 6 channels
Channel positions                        : Front: L C R, Side: L R, LFE
Sampling rate                            : 48.0 kHz
Bit depth                                : 16 bits
Stream size                              : 4.90 GiB (16%)


1:1 (as usual) with this profile m2ts, remux/h264, remus/dts

Code: Select all
<?xml version="1.0" encoding="Windows-1252" standalone="no"?>
<Configuration>
  <VSO_custom_profile>
    <Description/>
    <DefaultFileExtension>m2ts</DefaultFileExtension>
    <ContextName>Film BR (M2TS-R+H264-R+DTS)</ContextName>
    <VideoProfile>
      <Item0>codec=h264</Item0>
      <Item1>remuxifpossible=1</Item1>
      <Item2>width=1920</Item2>
      <Item3>height=1080</Item3>
      <Item4>h264_profile=high</Item4>
      <Item5>h264_level=4.1</Item5>
      <Item6>qmin=2</Item6>
      <Item7>qmax=31</Item7>
      <Item8>qdiff=3</Item8>
      <Item9>me_method=hex</Item9>
      <Item10>subq=6</Item10>
      <Item11>me_range=16</Item11>
      <Item12>refs=3</Item12>
      <Item13>bf=3</Item13>
      <Item14>coder=1</Item14>
      <Item15>trellis=0</Item15>
      <Item16>b_strategy=1</Item16>
      <Count>17</Count>
    </VideoProfile>
    <AudioProfile>
      <Item0>codec=dts</Item0>
      <Item1>remuxifpossible=1</Item1>
      <Count>2</Count>
    </AudioProfile>
    <SubtitleProfile>
      <Item0>codec=hdmv_pgs_subtitle</Item0>
      <Item1>remuxifpossible=1</Item1>
      <Count>2</Count>
    </SubtitleProfile>
    <ImageIndex>18</ImageIndex>
    <TemplateName>Custom profiles</TemplateName>
    <editor_link>FALSE</editor_link>
    <OutputFolder>L:\GRVD03\</OutputFolder>
    <Container>Sm_M2Ts</Container>
  </VSO_custom_profile>
</Configuration>


but it takes 5,5 hours instead of normally 30 min.

Isn't a 1:1 remux of VC-1 possible? btw. I've never heard about this format before. ;)

Any other (fast) 1:1 solutions?

Thanks for helping.
dosibo51
 
Posts: 90
Joined: Thu Jul 03, 2014 9:38 pm
Location: Austria

Re: 5,5 hours instead of 30 min for 1:1 rip

Postby dosibo51 » Fri Nov 11, 2016 7:29 am

Hi,

is there someone who can help?

I'm not a format expert and don't understand why VC-1 (just read only on wikipedia about it) remux doesn't work.

Is it not supported by the blu-ray ripper (I'm using the latest version).

Is the only chance to run it 5,5 hours on my PC?

Thanks a lot
dosibo51
 
Posts: 90
Joined: Thu Jul 03, 2014 9:38 pm
Location: Austria

Re: 5,5 hours instead of 30 min for 1:1 rip

Postby dosibo51 » Fri Nov 11, 2016 5:12 pm

I've tried MKV with all the remux possibilities and this works. Ripping was fast - only 30-40 minutes for the blu-ray.

Does VC-1 codec not work inside m2ts or is it not supported by VSO?

I'm wondering because on the BR the BDMV / Stream directory contains all .m2ts files and the biggest is VC-1 but can not remux it into m2ts?

Thanks for the help from an expert.
dosibo51
 
Posts: 90
Joined: Thu Jul 03, 2014 9:38 pm
Location: Austria

Re: 5,5 hours instead of 30 min for 1:1 rip

Postby Claire » Fri Mar 17, 2017 2:17 pm

Hi,

If you still have this problem in the latest beta version I can investigate
let me know how your tests go
dvd-converter-latest-beta-t18563.html
User avatar
Claire
VSO Team Member
 
Posts: 5914
Joined: Mon Apr 02, 2007 1:39 pm
Location: France


Return to Blu-ray Converter and DVD Converter

 


  • Related topics
    Replies
    Views
    Last post

Who is online

Users browsing this forum: No registered users and 1 guest